#TITLE:Femme_Like_U;
#SUBTITLE:;
#ARTIST:K'Maro;
#TITLETRANSLIT:;
#SUBTITLETRANSLIT:;
#ARTISTTRANSLIT:;
#CREDIT:;
#BANNER:Femme_Like_U-logo.jpg;
#BACKGROUND:Femme_Like_U.jpg;
#LYRICSPATH:;
#CDTITLE:&.png;
#MUSIC:Femme_Like_U.mp3;
#OFFSET:-0.040;
#SAMPLESTART:100.000;
#SAMPLELENGTH:12.000;
#SELECTABLE:YES;
#BPMS:0.000=117.010,165.500=167.150,170.500=58.505,172.000=117.010;
#STOPS:;
#BGCHANGES:;
// cache tags:
#FIRSTBEAT:36.000;
#LASTBEAT:331.000;
#SONGFILENAME:Songs/SDO/Femme_Like_U/Femme_Like_U.sm;
#HASMUSIC:1;
#HASBANNER:1;
#MUSICLENGTH:174.018;
// end cache tags

//---------------dance-single - Hener----------------
#NOTES:
     dance-single:
     Hener:
     Hard:
     8:
     0.656,0.785,1.000,0.063,0.207,565.000,215.000,11.000,0.000,21.000:

0000
0000
0000
0000
,
0000
0000
0000
0000
,
0000
0000
0000
0000
,
0000
0000
0000
0000
,
0000
0000
0000
0000
,
0000
0000
0000
0000
,
0000
0000
0000
0000
,
0000
0000
0000
0000
,
0000
0000
0000
0000
,
1001
0000
0100
0000
0101
0000
0010
0000
1100
0000
0010
0000
0001
0010
0100
1000
,
0101
1000
0101
0010
1100
0100
0011
0100
,
1001
0010
0100
1000
0100
0010
0001
0010
0001
0010
0100
1000
0011
0000
0000
0000
,
1001
0010
0101
1000
0110
0010
1100
0100
,
0101
0000
1010
0001
1000
0100
0011
0000
,
1100
0010
0101
0010
1100
0010
0101
0010
,
1010
0010
0101
0010
1100
0010
0101
0010
,
2121
0101
0101
0101
,
3131
0010
0001
0010
1000
0100
0010
0001
,
1010
0001
0010
0100
1000
0010
0001
0010
,
1001
0010
0101
1000
1100
0010
0101
0010
,
0101
1000
0110
0001
1010
0001
1010
0001
,
0110
0010
1001
0100
0110
0000
1010
0000
,
1001
0100
0001
0100
0001
0010
1000
0001
,
1001
0010
0110
0010
1001
0000
0110
0000
,
2112
0110
0110
0110
,
3113
0000
0001
0000
1000
0100
0001
0010
0100
1000
0001
0010
0100
1000
0010
0000
,
0001
0100
0010
0100
1000
0100
0010
0001
0010
0100
1000
0100
0010
0001
0010
0100
,
1000
0100
1000
0100
0010
0100
0010
0001
0010
0100
1000
0100
1000
0010
0100
0010
,
0100
0001
0010
0100
1000
0100
0010
0001
0010
0001
0010
0100
1000
0100
0010
0100
,
0010
0001
0010
0000
1000
0100
1000
0000
0011
0000
0000
0000
1001
0000
0100
0010
,
0001
1000
0100
0010
0001
0010
0001
0010
0100
1000
0000
0000
0101
0000
0000
0000
,
0001
0100
1000
0001
0010
0100
1000
0010
0001
0010
0100
1000
0010
0001
0010
0001
,
0010
0001
0100
0010
0100
0010
0100
0010
0100
1000
0100
1000
0100
1000
0100
0000
,
1001
0100
1001
0010
1001
0100
1001
0010
,
1001
0100
1001
0010
1001
0100
1001
0010
,
1001
0110
1100
0101
1010
0110
0011
1100
,
0101
1010
0110
0011
1010
0110
1010
0101
,
1001
0100
0101
0100
1100
0010
0101
0100
,
1001
0100
1100
0010
0101
0010
0110
0010
,
1100
0001
0110
1000
0101
0010
0110
0010
,
1100
0001
0110
0000
0101
0000
1001
0000
,
0220
0000
0000
0000
,
0000
0000
0000
0000
,
1331
0010
0110
1000
0101
0010
1001
0010
,
0110
0000
1000
0000
0101
0000
0010
0000
1001
0000
0000
0000
1000
0100
0010
0000
,
1001
0000
0010
0000
0101
0000
1000
0100
0010
0001
0010
0001
0010
0000
0100
0000
,
1001
0100
0110
1000
0101
0010
1100
0010
,
0101
0010
0011
0100
1010
0001
0110
0001
,
1010
0010
1100
0010
1001
0100
1001
1000
,
0101
1000
1001
0010
0110
0010
1010
0100
,
1221
1001
1001
1001
,
1331
0010
0001
0010
1000
0100
0010
0001
,
1010
0001
0010
0100
1000
0010
0001
0010
,
1001
0010
0101
1000
1100
0010
0101
0010
,
0101
1000
0110
0001
1010
0001
1010
0001
,
0110
0010
1001
0100
0110
0000
1010
0000
,
1001
0100
0001
0100
0001
0010
1000
0001
,
1001
0010
0110
0010
1001
0000
0110
0000
,
2100
0001
0100
3001
,
0000
0000
0000
0000
0000
0001
0010
0000
,
1001
0000
0101
0000
1010
0010
0100
0000
,
1001
0000
0101
0000
1010
0010
0100
0000
,
1001
0000
0101
0000
1010
0010
0100
0000
,
1001
0110
1010
0101
,
1010
0000
0000
0001
1000
0000
0110
0000
,
1001
0011
0101
1100
,
1001
0101
0011
1100
,
0000
0000
0000
0000
,
1001
0000
0100
0000
0101
0000
0010
0000
1100
0000
0010
0000
0001
0010
0100
1000
,
0101
1000
0101
0010
1100
0100
0011
0100
,
1001
0010
0100
1000
0100
0010
0001
0010
0001
0010
0100
1000
0011
0000
0000
0000
,
1001
0010
0101
1000
0110
0010
1100
0100
,
0101
0000
1010
0001
1000
0100
0011
0000
,
1100
0010
0101
0010
1100
0010
0101
0010
,
1010
0010
0101
0010
1100
0010
0101
0010
,
2121
0101
0101
0101
,
3131
0010
0001
0010
1000
0100
0010
0001
,
1010
0001
0010
0100
1000
0010
0001
0010
,
1001
0010
0101
1000
1100
0010
0101
0010
,
0101
1000
0110
0001
1010
0001
1010
0001
,
0110
0010
1001
0100
0110
0000
1010
0000
,
1001
0100
0001
0100
0001
0010
1000
0001
,
1001
0010
0110
0010
1001
0000
0110
0000
;
